บ้านCalendarช่วยเหลือค้นหารายชื่อสมาชิกกลุ่มผู้ใช้สมัครสมาชิก(Register)เข้าสู่ระบบ(Log in)

Share | 
 

 [PV] JURIAN BEAT CRISIS - Zutto Kokokara

อ่านหัวข้อก่อนหน้า อ่านหัวข้อถัดไป Go down 
ผู้ตั้งข้อความ
idevz
SCANDAL Member
SCANDAL Member


จำนวนข้อความ : 1560
Join date : 21/03/2011
Age : 29
ที่อยู่ : In My Heart ♥♥TOMOMI♥♥

ตั้งหัวข้อเรื่อง: [PV] JURIAN BEAT CRISIS - Zutto Kokokara    Mon Aug 22, 2011 8:35 am



Format : MPEG-4
File size : 140 MiB
Duration : 4mn 58s

Video
ID : 1
Format : MPEG-4 Visual
Format profile : Simple@L1
Format settings, BVOP : No
Format settings, QPel : No
Format settings, GMC : No warppoints
Format settings, Matrix : Default (H.263)
Codec ID : 20
Duration : 4mn 58s
Duration_LastFrame : -33ms / -23ms
Bit rate mode : Variable
Bit rate : 3 761 Kbps
Width : 720 pixels
Height : 406 pixels
Display aspect ratio : 16:9
Frame rate mode : Constant
Frame rate : 29.970 fps
Color space : YUV
Chroma subsampling : 4:2:0
Bit depth : 8 bits
Scan type : Progressive
Compression mode : Lossy
Bits/(Pixel*Frame) : 0.429
Stream size : 134 MiB (96%)
Writing library : Lavc52.27.0

Audio
ID : 2
Format : AAC
Format/Info : Advanced Audio Codec
Format profile : LC
Codec ID : 40
Duration : 4mn 58s
Bit rate mode : Variable
Bit rate : 152 Kbps
Channel(s) : 2 channels
Channel positions : Front: L R
Sampling rate : 44.1 KHz
Compression mode : Lossy
Stream size : 5.42 MiB (4%)





Password : boatchan



Follow Me

ขึ้นไปข้างบน Go down
ดูข้อมูลส่วนตัว http://boatchan.exteen.com/
 
[PV] JURIAN BEAT CRISIS - Zutto Kokokara
อ่านหัวข้อก่อนหน้า อ่านหัวข้อถัดไป ขึ้นไปข้างบน 
หน้า 1 จาก 1

Permissions in this forum:คุณไม่สามารถพิมพ์ตอบ
 :: SCANDAL Fanclub World :: Japanese Media-
ไปที่: